<?xml version="1.0" standalone="no"?>
<!DOCTYPE svg PUBLIC "-//W3C//DTD SVG 1.1//EN" "http://www.w3.org/Graphics/SVG/1.1/DTD/svg11.dtd">
<svg xmlns="http://www.w3.org/2000/svg">
<metadata>Copyright (C) 2023 by original authors @ fontello.com</metadata>
<defs>
<font id="chillisign" horiz-adv-x="1000" >
<font-face font-family="chillisign" font-weight="400" font-stretch="normal" units-per-em="1000" ascent="850" descent="-150" />
<missing-glyph horiz-adv-x="1000" />
<glyph glyph-name="tiktok" unicode="&#xe800;" d="M811 610c-101 21-176 105-185 208v21h-169v-670c0-78-64-142-142-141-45 0-86 20-113 56l0 0 0 0c-47 62-35 151 27 198 37 28 85 37 129 23v171c-170 24-326-95-350-264-13-95 19-191 86-260 119-122 316-125 438-5 60 59 94 139 94 222v342c68-48 150-75 234-74v167c-17 0-33 2-49 6z" horiz-adv-x="869" />

<glyph glyph-name="file-signature" unicode="&#xe801;" d="M963 355c-47 47-129 47-176 0l-292-292c-24-23-37-55-37-88v-83c0-23 19-42 42-42h83c34 0 65 13 89 37l291 291c24 24 37 55 37 89 0 33-13 64-37 88z m-58-118l-292-292c-8-8-18-12-30-12h-41v42c0 11 4 22 12 30l291 291c16 16 44 16 59 0 8-8 12-18 12-29 0-12-4-22-12-30h1z m-322 51c0 34-28 62-62 62-35 0-63-28-63-62 0-14 5-28 12-42-13-11-30-21-53-21-19 0-37 5-54 14 33 49 54 106 54 153 0 68-57 125-125 125-69 0-125-57-125-125 0-51 28-111 71-159-10-5-20-8-30-8-23 0-41-19-41-42 0-23 18-41 41-41 35 0 67 13 96 35 35-22 74-35 113-35 108 0 166 103 166 146z m-286 4c-28 33-47 71-47 100 0 23 19 41 42 41 23 0 41-18 41-41 0-30-14-68-36-100z m78-317c0-23-19-42-42-42h-125c-115 0-208 94-208 209v500c0 115 93 208 208 208h240c45 0 87-17 118-49l135-135c32-31 49-73 49-118v-73c0-23-19-42-42-42-23 0-41 19-41 42v73c0 4 0 7-1 10h-124c-46 0-84 38-84 84v124c-3 0-6 1-10 1h-240c-68 0-125-57-125-125v-500c0-69 57-125 125-125h125c23 0 42-19 42-42z" horiz-adv-x="1000" />

<glyph glyph-name="home" unicode="&#xe802;" d="M963 472l-316 316c-39 39-92 61-147 61-55 0-108-22-147-61l-316-316c-12-11-21-25-27-40-7-16-10-32-10-48v-409c0-33 13-65 37-89 23-23 55-36 88-36h750c33 0 65 13 88 36 24 24 37 56 37 89v409c0 16-3 32-9 48-7 15-16 29-28 40z m-338-539h-250v164c0 33 13 65 37 88 23 24 55 37 88 37 33 0 65-13 88-37 24-23 37-55 37-88v-164z m292 42c0-11-5-22-12-30-8-8-19-12-30-12h-167v164c0 55-22 108-61 147-39 39-92 61-147 61-55 0-108-22-147-61-39-39-61-92-61-147v-164h-167c-11 0-22 4-29 12-8 8-13 19-13 30v409c0 11 5 21 13 29l316 316c23 24 55 37 88 37 33 0 65-13 88-37l317-316c7-8 12-18 12-29v-409z" horiz-adv-x="1000" />

<glyph glyph-name="chart-histogram" unicode="&#xe803;" d="M958-67h-750c-33 0-65 13-88 37-23 23-37 55-37 88v750c0 11-4 22-12 30-8 8-18 12-29 12-11 0-22-4-30-12-8-8-12-19-12-30l0-750c0-55 22-108 61-147 39-39 92-61 147-61h750c11 0 22 4 30 12 8 8 12 19 12 30 0 11-4 21-12 29-8 8-19 12-30 12z m-708 84c11 0 22 4 30 12 7 8 12 18 12 29v292c0 11-5 22-12 30-8 7-19 12-30 12-11 0-22-5-29-12-8-8-13-19-13-30v-292c0-11 5-21 13-29 7-8 18-12 29-12z m167 416v-375c0-11 4-21 12-29 8-8 18-12 29-12 11 0 22 4 30 12 8 8 12 18 12 29v375c0 11-4 22-12 30-8 8-19 12-30 12-11 0-21-4-29-12-8-8-12-19-12-30z m208-125v-250c0-11 4-21 12-29 8-8 19-12 30-12 11 0 21 4 29 12 8 8 12 18 12 29v250c0 11-4 22-12 30-8 8-18 12-29 12-11 0-22-4-30-12-8-8-12-19-12-30z m208 167v-417c0-11 5-21 13-29 7-8 18-12 29-12 11 0 22 4 30 12 7 8 12 18 12 29v417c0 11-5 22-12 30-8 7-19 12-30 12-11 0-22-5-29-12-8-8-13-19-13-30z m-583 0c11 0 22 4 30 12l149 150c8 7 18 11 29 11 11 0 22-4 30-11l90-91c24-23 56-36 89-36 33 0 65 13 88 36l233 233c7 8 12 18 12 29-1 11-5 22-13 29-7 8-18 12-29 13-11 0-21-5-29-12l-233-233c-8-8-18-12-29-12-11 0-22 4-30 12l-90 91c-24 23-55 36-89 36-33 0-65-13-88-36l-149-150c-6-6-10-13-12-21-1-8-1-17 3-24 3-8 8-14 15-19 7-5 15-7 23-7z" horiz-adv-x="1000" />

<glyph glyph-name="discord" unicode="&#xe804;" d="M847 674c-65 30-134 52-206 65-9-16-19-38-26-55-77 12-154 12-229 0-7 17-18 39-27 55-72-13-142-35-206-65-131-198-167-390-149-580 87-64 171-104 253-129 21 28 39 58 55 89-30 11-59 25-86 42 7 5 14 10 21 16 165-77 343-77 506 0 7-6 14-11 21-16-27-17-56-31-86-42 16-31 34-61 55-89 82 25 166 65 253 129 21 220-36 411-149 580z m-513-463c-49 0-90 46-90 102s40 103 90 103c50 0 91-46 90-103 0-56-40-102-90-102z m332 0c-49 0-90 46-90 102s40 103 90 103c50 0 91-46 90-103 0-56-40-102-90-102z" horiz-adv-x="1000" />

<glyph glyph-name="lock" unicode="&#xe805;" d="M792 499v59c0 78-31 152-86 207-54 54-129 85-206 85-77 0-151-31-206-85-55-55-86-129-86-207v-59c-37-16-68-43-91-77-22-34-34-73-34-114v-250c0-55 22-108 61-147 40-39 92-61 148-61h416c56 0 109 22 148 61 39 39 61 92 61 147v250c0 41-12 80-34 114-23 34-54 61-91 77z m-500 59c0 56 22 109 61 148 39 39 92 61 147 61 55 0 108-22 147-61 39-39 61-92 61-148v-41h-416v41z m541-500c0-33-13-65-36-88-24-24-55-37-89-37h-416c-33 0-65 13-89 37-23 23-36 55-36 88v250c0 34 13 65 36 89 24 23 56 36 89 36h416c34 0 65-13 89-36 23-24 36-55 36-89v-250z m-333 209c-11 0-22-5-29-12-8-8-13-19-13-30v-83c0-11 5-22 13-30 7-8 18-12 29-12 11 0 22 4 30 12 7 8 12 19 12 30v83c0 11-5 22-12 30-8 7-19 12-30 12z" horiz-adv-x="1000" />

<glyph glyph-name="palette" unicode="&#xe806;" d="M729 392c35 0 63 28 63 62 0 35-28 63-63 63-34 0-62-28-62-63 0-34 28-62 62-62z m-208 125c34 0 62 28 62 62 0 35-28 63-62 63-35 0-63-28-63-63 0-34 28-62 63-62z m-208-125c34 0 62 28 62 62 0 35-28 63-62 63-35 0-63-28-63-63 0-34 28-62 63-62z m0-250c34 0 62 28 62 62 0 35-28 63-62 63-35 0-63-28-63-63 0-34 28-62 63-62z m191-292c-100 0-197 30-280 85-83 56-147 135-184 228-37 92-46 193-26 291 21 97 70 186 142 256 48 46 105 83 168 107 63 24 130 35 197 33 127-6 247-60 336-150 89-90 142-211 146-337 2-65-9-130-32-190-5-12-12-23-22-32-10-9-22-14-35-17-13-3-27-3-40 1-13 4-25 11-34 21l-4 4c-21 21-48 35-77 40-29 6-59 3-86-8-27-12-50-31-66-56-17-24-25-53-25-83l2-188-39-3c-14-1-27-2-41-2z m0 917c-111 0-217-43-296-121-78-78-123-184-123-294-1-111 43-217 121-295 77-79 183-123 294-124l-1 110c0 31 5 61 17 90 12 28 29 54 51 76 43 43 102 68 164 68 61 0 120-25 164-68l0-1c18 49 26 101 25 153-4 105-47 206-122 281-74 75-174 120-280 124-5 1-10 1-15 1h1z" horiz-adv-x="1000" />

<glyph glyph-name="mode-portrait" unicode="&#xe807;" d="M958 183c-11 0-21-4-29-12-8-8-12-18-12-29v-84c0-33-13-65-37-88-23-24-55-37-88-37h-84c-11 0-21-4-29-12-8-8-12-18-12-29 0-11 4-22 12-30 8-8 18-12 29-12h84c55 0 108 22 147 61 39 39 61 92 61 147v84c0 11-4 21-12 29-8 8-19 12-30 12z m-916 334c11 0 21 4 29 12 8 8 12 18 12 29v84c0 33 14 65 37 88 23 24 55 37 88 37h84c11 0 21 4 29 12 8 8 12 18 12 29 0 11-4 22-12 30-8 8-18 12-29 12l-84 0c-55 0-108-22-147-61-39-39-61-92-61-147l0-84c0-11 4-21 12-29 8-8 19-12 30-12z m250-584h-84c-33 0-65 13-88 37-23 23-37 55-37 88v84c0 11-4 21-12 29-8 8-18 12-29 12-11 0-22-4-30-12-8-8-12-18-12-29l0-84c0-55 22-108 61-147 39-39 92-61 147-61h84c11 0 21 4 29 12 8 8 12 19 12 30 0 11-4 21-12 29-8 8-18 12-29 12z m500 917h-84c-11 0-21-4-29-12-8-8-12-19-12-30 0-11 4-21 12-29 8-8 18-12 29-12h84c33 0 65-13 88-37 24-23 37-55 37-88v-84c0-11 4-21 12-29 8-8 18-12 29-12 11 0 22 4 30 12 8 8 12 18 12 29v84c0 55-22 108-61 147-39 39-92 61-147 61z m-292-458c33 0 65 9 93 28 27 18 48 44 61 75 13 30 16 64 10 96-7 32-23 62-46 85-23 24-53 39-85 46-33 6-66 3-97-10-30-12-56-34-75-61-18-27-28-60-28-93 0-44 18-86 49-117 31-32 74-49 118-49z m0 250c17 0 33-5 46-14 14-9 25-22 31-38 6-15 8-32 5-48-3-16-11-31-23-43-12-11-27-19-43-22-16-4-33-2-48 4-15 7-28 17-37 31-9 14-14 30-14 46 0 22 8 44 24 59 16 16 37 25 59 25z m250-625c11 0 22 4 30 12 7 8 12 18 12 29 0 67-27 130-74 177-46 47-110 73-176 73h-84c-66 0-129-26-176-73-47-47-74-110-74-177 0-11 5-21 13-29 7-8 18-12 29-12 11 0 22 4 30 12 7 8 12 18 12 29 0 45 17 87 49 118 31 31 73 49 117 49h84c44 0 86-18 118-49 31-31 48-73 48-118 0-11 5-21 13-29 7-8 18-12 29-12z" horiz-adv-x="1000" />

<glyph glyph-name="pencil" unicode="&#xe808;" d="M838 689c-24 23-55 36-88 36-33 0-65-13-89-36l-486-486c-16-16-28-35-37-56-9-21-13-43-13-66v-59c0-12 5-24 14-33 9-9 20-14 33-14h59c23 0 45 4 66 13 21 9 40 21 56 37l485 487c24 23 37 55 37 89 0 33-13 65-37 88z m-551-597c-15-15-35-23-56-23h-12v12c0 21 8 41 23 56l361 362 45-45-361-362z m485 486l-58-58-45 45 58 58c6 6 14 9 23 9 8 0 16-3 22-9 6-6 9-14 9-22 0-9-3-17-9-23z" horiz-adv-x="1000" />

<glyph glyph-name="pinterest" unicode="&#xe809;" d="M514 850c-274 0-420-176-420-367 0-89 49-200 129-235 23-10 20 2 39 77 2 6 1 12-4 17-114 132-22 402 239 402 379 0 309-524 66-524-62 0-109 49-94 109 18 72 53 150 53 202 0 131-196 112-196-62 0-54 19-90 19-90 0 0-62-254-74-301-20-81 3-211 5-222 1-6 8-8 12-3 6 8 82 116 103 195 8 28 40 144 40 144 21-38 81-69 145-69 192 0 330 168 330 377 0 200-172 350-392 350z" horiz-adv-x="1000" />

<glyph glyph-name="poll-h" unicode="&#xe80a;" d="M792 850h-584c-115 0-208-93-208-208v-584c0-115 93-208 208-208h584c115 0 208 93 208 208v584c0 115-93 208-208 208z m125-792c0-68-57-125-125-125h-584c-68 0-125 57-125 125v584c0 68 57 125 125 125h584c68 0 125-57 125-125v-584z m-709 375c0 23 19 42 42 42h375c23 0 42-19 42-42 0-23-19-41-42-41h-375c-23 0-42 18-42 41z m0 167c0 23 19 42 42 42h250c23 0 42-19 42-42 0-23-19-42-42-42h-250c-23 0-42 19-42 42z m584-333c0-23-19-42-42-42h-500c-23 0-42 19-42 42 0 23 19 41 42 41h500c23 0 42-18 42-41z m-375-167c0-23-19-42-42-42h-125c-23 0-42 19-42 42 0 23 19 42 42 42h125c23 0 42-19 42-42z" horiz-adv-x="1000" />

<glyph glyph-name="settings" unicode="&#xe80b;" d="M500 517c-33 0-65-10-93-28-27-19-48-45-61-75-13-31-16-64-9-96 6-33 22-62 45-86 24-23 53-39 86-45 32-7 65-4 96 9 30 13 56 34 75 61 18 28 28 60 28 93 0 44-18 87-49 118-31 31-74 49-118 49z m0-250c-16 0-33 5-46 14-14 9-25 22-31 37-6 15-8 32-5 48 4 16 11 31 23 43 12 12 27 20 43 23 16 3 33 1 48-5 15-6 28-17 37-31 9-13 14-29 14-46 0-22-8-43-24-59-16-16-37-24-59-24z m387 4l-18 11c8 45 8 91 0 137l18 10c15 9 27 19 37 32 10 13 17 28 22 44 4 16 5 33 3 49-2 16-8 32-16 46-8 14-19 27-32 37-13 10-28 17-44 21-16 5-32 6-48 4-17-3-32-8-47-16l-18-11c-35 30-76 53-119 69v21c0 33-13 65-37 88-23 24-55 37-88 37-33 0-65-13-88-37-24-23-37-55-37-88v-21c-43-16-84-39-119-69l-18 11c-29 16-63 21-95 12-32-8-59-29-76-58-17-29-21-63-13-95 9-32 30-59 59-76l18-10c-8-46-8-92 0-138l-18-10c-29-17-50-44-59-76-8-32-4-66 13-95 17-29 44-50 76-58 32-9 66-4 95 12l18 11c35-30 76-53 119-69v-21c0-33 13-65 37-88 23-24 55-37 88-37 33 0 65 13 88 37 24 23 37 55 37 88v21c43 16 84 39 119 69l18-11c29-16 63-21 95-12 32 8 60 29 76 58 17 29 21 63 13 95-9 32-30 59-59 76l0 0z m-106 157c14-51 14-105 0-156-2-9-2-18 2-27 3-8 9-16 17-20l46-26c9-6 16-15 19-26 3-10 1-22-4-31-6-10-15-17-25-20-11-3-22-1-32 4l-45 27c-8 4-18 6-27 5-9-1-17-6-24-12-37-38-84-65-135-78-9-3-17-8-23-15-5-8-8-16-8-26v-52c0-11-5-22-13-30-7-7-18-12-29-12-11 0-22 5-29 12-8 8-13 19-13 30v52c0 9-3 18-8 26-6 7-14 12-23 15-51 13-98 40-135 78-7 6-15 11-24 12-9 1-19-1-27-5l-45-26c-5-3-10-5-15-6-6 0-11 0-17 1-5 2-10 4-14 7-5 4-8 8-11 13-3 5-5 10-5 15-1 6-1 11 1 16 1 6 4 11 7 15 4 4 8 8 13 11l45 26c8 4 14 12 17 20 4 9 4 18 2 27-14 51-14 105 0 156 2 9 2 19-2 27-3 9-9 16-17 20l-46 26c-9 6-16 15-19 26-3 10-1 22 4 31 6 10 15 17 26 20 10 3 22 1 31-4l45-26c8-5 18-7 27-6 9 1 17 6 24 12 37 38 84 65 135 78 9 3 17 8 23 15 5 8 8 17 8 26v52c0 11 5 22 13 30 7 7 18 12 29 12 11 0 22-5 30-12 7-8 12-19 12-30v-52c0-9 3-18 8-26 6-7 14-12 23-14 51-14 98-41 135-79 7-6 15-11 24-12 9-1 19 1 27 5l45 26c5 3 10 5 15 6 6 1 11 0 17-1 5-2 10-4 14-7 5-4 8-8 11-13 3-4 5-10 5-15 1-6 1-11-1-16-1-6-4-11-7-15-3-4-8-8-12-11l-46-26c-8-4-14-12-17-20-4-9-4-18-2-27v0z" horiz-adv-x="1000" />

<glyph glyph-name="settings-sliders" unicode="&#xe80c;" d="M42 652h114c9-33 28-62 55-83 27-20 61-31 95-31 34 0 67 11 94 31 27 21 47 50 56 83h502c11 0 22 5 30 12 8 8 12 19 12 30 0 11-4 21-12 29-8 8-19 12-30 12h-502c-9 33-29 62-56 83-27 21-60 32-94 32-34 0-68-11-95-32-27-21-46-50-55-83h-114c-11 0-22-4-30-12-8-8-12-18-12-29 0-11 4-22 12-30 8-7 19-12 30-12z m264 115c14 0 28-5 40-13 12-8 21-19 27-32 5-14 7-28 4-42-3-15-10-28-20-38-10-10-23-17-37-20-14-3-29-1-42 4-14 6-25 15-33 27-8 12-12 26-12 41 0 19 7 38 21 51 14 14 32 22 52 22z m652-375h-114c-9 33-28 62-55 82-27 21-60 32-94 32-35 0-68-11-95-32-27-20-46-49-55-82h-503c-11 0-22-5-30-12-8-8-12-19-12-30 0-11 4-22 12-29 8-8 19-13 30-13h503c9-33 28-62 55-82 27-21 60-32 95-32 34 0 67 11 94 32 27 20 46 49 55 82h114c11 0 22 5 30 13 8 7 12 18 12 29 0 11-4 22-12 30-8 7-19 12-30 12z m-263-115c-15 0-29 4-41 12-12 8-21 20-27 33-5 13-7 28-4 42 3 14 10 27 20 38 10 10 23 17 37 20 14 2 29 1 42-5 14-5 25-14 33-26 8-12 12-27 12-41 0-19-7-38-21-51-14-14-32-22-51-22z m263-229h-502c-9 33-29 62-56 83-27 20-60 32-94 32-34 0-68-12-95-32-27-21-46-50-55-83h-114c-11 0-22-4-30-12-8-8-12-19-12-30 0-11 4-21 12-29 8-8 19-12 30-12h114c9-33 28-62 55-83 27-21 61-32 95-32 34 0 67 11 94 32 27 21 47 50 56 83h502c11 0 22 4 30 12 8 8 12 18 12 29 0 11-4 22-12 30-8 8-19 12-30 12z m-652-115c-15 0-29 5-41 13-12 8-21 19-27 32-5 14-7 28-4 43 3 14 10 27 20 37 10 10 23 17 37 20 15 3 29 1 42-4 14-6 25-15 33-27 8-12 13-26 13-41-1-19-8-38-22-51-14-14-32-22-51-22z" horiz-adv-x="1000" />

<glyph glyph-name="social" unicode="&#xe80d;" d="M806 239c-32 0-63-8-91-22-27-15-51-36-69-62l-271 122c19 47 19 99 0 145l271 123c26-38 65-65 110-77 45-12 93-7 134 13 42 21 75 55 93 98 19 43 21 91 7 135-13 44-43 82-82 107-39 24-86 34-132 27-46-7-88-31-118-66-30-35-47-80-47-126 1-11 2-22 4-33l-288-131c-27 26-62 43-99 50-38 6-76 2-111-13-34-15-64-40-85-72-21-32-32-69-32-106 0-38 11-75 32-107 20-32 50-57 84-72 35-15 74-20 111-14 37 7 72 24 100 50l288-131c-2-11-3-21-3-32 0-39 11-77 32-109 22-32 52-57 87-71 36-15 75-19 113-11 37 7 72 26 99 53 27 27 46 62 53 100 8 37 4 76-11 112-14 35-39 66-71 87-32 22-70 33-108 33z m0 528c22 0 43-7 61-19 19-12 33-30 41-50 9-20 11-43 7-64-5-22-15-41-31-57-15-16-35-26-57-30-21-5-43-2-64 6-20 8-37 23-49 41-13 18-19 40-19 62 0 29 12 57 32 78 21 21 49 33 79 33z m-611-528c-22 0-43 6-61 19-19 12-33 29-41 50-9 20-11 42-7 64 5 21 15 41 31 57 15 15 35 26 57 30 21 4 44 2 64-6 20-9 37-23 50-41 12-18 18-40 18-62 0-29-11-58-32-78-21-21-49-33-79-33z m611-306c-22 0-44 7-62 19-18 12-32 30-41 50-8 20-10 43-6 64 4 22 15 42 30 57 16 16 36 26 57 31 22 4 44 2 64-7 21-8 38-22 50-41 12-18 19-39 19-61 0-30-12-58-33-79-21-21-49-33-78-33z" horiz-adv-x="1000" />

<glyph glyph-name="trash_v1" unicode="&#xe80e;" d="M917 683h-209v84c0 22-8 43-24 59-16 15-37 24-59 24l-250 0c-22 0-43-9-59-24-16-16-24-37-24-59v-84h-209v-83h84v-625c0-33 13-65 36-88 24-24 56-37 89-37h416c34 0 65 13 89 37 23 23 36 55 36 88v625h84v83z m-542 84h250v-84h-250v84z m375-792c0-11-4-22-12-30-8-7-19-12-30-12h-416c-11 0-22 5-30 12-8 8-12 19-12 30v625h500v-625z m-292 458h-83v-333h83v333z m167 0h-83v-333h83v333z" horiz-adv-x="1000" />

<glyph glyph-name="trash_v2" unicode="&#xe80f;" d="M875 683h-129c-10 47-35 90-73 120-37 30-83 47-131 47l-84 0c-48 0-94-17-131-47-38-30-63-73-73-120h-129c-11 0-22-4-29-12-8-8-13-18-13-29 0-11 5-22 13-30 7-8 18-12 29-12h42v-542c0-55 22-108 61-147 39-39 92-61 147-61h250c55 0 108 22 147 61 39 39 61 92 61 147v542h42c11 0 22 4 30 12 7 8 12 19 12 30 0 11-5 21-12 29-8 8-19 12-30 12z m-417 84h84c26 0 51-8 72-23 21-15 37-36 46-61h-319c8 25 24 46 45 61 21 15 47 23 72 23z m292-709c0-33-13-65-37-88-23-24-55-37-88-37h-250c-33 0-65 13-88 37-24 23-37 55-37 88v542h500v-542z m-333 42c11 0 21 4 29 12 8 8 12 19 12 30v250c0 11-4 21-12 29-8 8-18 12-29 12-11 0-22-4-30-12-8-8-12-18-12-29v-250c0-11 4-22 12-30 8-8 19-12 30-12z m166 0c11 0 22 4 30 12 8 8 12 19 12 30v250c0 11-4 21-12 29-8 8-19 12-30 12-11 0-21-4-29-12-8-8-12-18-12-29v-250c0-11 4-22 12-30 8-8 18-12 29-12z" horiz-adv-x="1000" />

<glyph glyph-name="airbnb" unicode="&#xe810;" d="M864 40c-7-52-42-97-91-117-24-10-50-13-76-10-25 3-50 11-76 26-36 20-72 51-114 97 66 81 106 155 121 221 7 31 8 60 5 86-4 25-13 48-27 68-31 45-83 71-141 71s-111-27-142-71c-14-20-23-43-27-68-4-26-3-56 5-86 15-66 56-141 122-222-42-46-79-77-115-97-26-15-51-23-76-26-25-3-52 1-76 10-49 20-84 65-91 117-3 25-1 50 9 78 3 10 8 20 13 32 7 16 15 33 23 50l1 2c69 150 143 302 221 450l3 6c8 15 16 31 24 46 8 16 17 31 28 44 21 24 49 37 80 37s59-13 80-37c11-13 20-28 28-44 8-15 16-31 24-46l3-6c76-149 150-301 219-451v-1c8-16 15-34 23-50 5-12 10-22 13-32 8-26 11-51 7-77l0 0z m-399 47c-54 68-89 132-102 186-5 24-6 44-3 62 2 16 9 30 16 42 20 27 52 44 89 44s70-16 88-44c8-12 14-26 16-42 3-18 2-39-3-62-12-53-47-117-101-186l0 0z m451 52c-5 12-10 25-15 36-8 18-16 35-23 51l-1 1c-69 151-143 303-221 453l-3 6c-8 15-16 31-24 47-10 18-20 37-36 55-32 40-78 62-127 62-50 0-95-22-129-60-15-18-26-37-36-55-8-16-16-32-24-47l-3-6c-77-150-152-302-221-453l-1-2c-7-16-15-33-23-51-5-11-10-23-15-36-13-37-17-72-12-108 11-75 61-138 130-166 26-11 53-16 81-16 8 0 18 1 26 2 33 4 67 15 100 34 42 23 81 56 125 104 44-48 84-81 124-104 33-19 67-30 100-34 8-1 18-2 26-2 28 0 56 5 81 16 70 28 119 92 130 166 8 35 4 70-9 107l0 0z" horiz-adv-x="929" />

<glyph glyph-name="unlock" unicode="&#xe811;" d="M708 517h-416v41c0 47 15 91 43 128 29 37 68 63 113 74 45 12 92 8 134-10 43-18 78-50 100-91 3-4 7-9 11-12 4-4 9-6 14-8 6-1 11-2 17-1 5 1 10 2 15 5 5 3 9 6 12 11 4 4 6 9 8 14 1 5 2 11 1 16 0 6-2 11-5 16-31 56-80 101-140 126-59 26-125 31-188 15-63-16-118-53-158-104-39-51-61-114-61-179v-59c-37-16-68-43-91-77-22-34-34-73-34-114v-250c0-55 22-108 61-147 40-39 92-61 148-61h416c56 0 109 22 148 61 39 39 61 92 61 147v250c0 56-22 109-61 148-39 39-92 61-148 61z m125-459c0-33-13-65-36-88-24-24-55-37-89-37h-416c-33 0-65 13-89 37-23 23-36 55-36 88v250c0 34 13 65 36 89 24 23 56 36 89 36h416c34 0 65-13 89-36 23-24 36-55 36-89v-250z m-333 209c-11 0-22-5-29-12-8-8-13-19-13-30v-83c0-11 5-22 13-30 7-8 18-12 29-12 11 0 22 4 30 12 7 8 12 19 12 30v83c0 11-5 22-12 30-8 7-19 12-30 12z" horiz-adv-x="1000" />

<glyph glyph-name="users" unicode="&#xe812;" d="M313 308c-38 0-74 11-105 32-30 21-54 50-69 84-14 34-18 72-10 108 7 37 25 70 51 96 26 27 60 45 96 52 36 7 74 3 108-11 35-14 64-38 84-69 21-31 32-67 32-104 0-50-20-97-55-133-35-35-83-55-132-55z m0 292c-21 0-41-6-58-18-17-11-31-27-39-46-8-19-10-40-6-60 4-21 14-39 29-54 14-14 33-24 53-28 20-4 41-2 60 6 19 8 36 21 47 38 12 17 18 37 18 58 0 28-11 54-31 74-19 19-46 30-73 30z m312-708v20c0 83-33 163-91 222-59 58-139 91-221 91-83 0-163-33-221-91-59-59-92-139-92-222l0-20c0-11 4-22 12-30 8-8 19-12 30-12 11 0 21 4 29 12 8 8 12 19 12 30v20c0 61 25 120 68 163 42 43 101 67 162 67 60 0 119-24 162-67 43-43 67-102 67-163v-20c0-11 4-22 12-30 8-8 18-12 29-12 11 0 22 4 30 12 8 8 12 19 12 30z m375 208c0 56-16 111-47 159-31 47-74 84-126 107-51 23-108 31-164 22-55-8-107-33-149-71-4-3-8-8-10-13-2-5-4-10-4-15 0-6 0-11 2-17 2-5 5-10 8-14 4-4 9-7 13-9 5-3 11-4 16-4 6-1 11 0 16 2 6 2 10 5 15 8 29 27 67 45 106 51 40 6 81 1 117-16 37-16 68-43 90-77 22-33 34-73 34-113 0-11 4-22 12-29 8-8 18-13 29-13 11 0 22 5 30 13 8 7 12 18 12 29z m-271 375c-37 0-73 11-104 32-31 20-55 50-69 84-14 34-18 72-11 108 8 37 25 70 52 96 26 26 59 44 96 51 36 8 74 4 108-10 34-14 64-38 84-69 21-31 32-67 32-104 0-50-20-98-55-133-35-35-83-55-133-55z m0 292c-20 0-41-6-58-18-17-11-30-28-38-47-8-19-10-40-6-60 4-20 14-39 29-53 14-15 33-25 53-29 20-4 41-2 60 6 19 8 35 22 47 39 11 17 17 37 17 58 0 27-11 54-30 73-20 20-46 31-74 31z" horiz-adv-x="1000" />

<glyph glyph-name="arrows-from-dotted-line-1" unicode="&#xe813;" d="M146 350c0-34-28-62-63-62-34 0-62 28-62 62 0 35 28 63 62 63 35 0 63-28 63-63z m292 0c0-34 28-62 62-62 35 0 63 28 63 62 0 35-28 63-63 63-34 0-62-28-62-63z m-84 0c0 35-28 63-62 63-35 0-63-28-63-63 0-34 28-62 63-62 34 0 62 28 62 62z m354 63c-34 0-62-28-62-63 0-34 28-62 62-62 35 0 63 28 63 62 0 35-28 63-63 63z m209 0c-35 0-63-28-63-63 0-34 28-62 63-62 34 0 62 28 62 62 0 35-28 63-62 63z m-354-230h-125v-166h-125l158-155c16-16 42-16 59 0l158 155h-125v166z m-125 334h125v166h125l-158 155c-17 16-43 16-59 0l-158-155h125v-166z" horiz-adv-x="1000" />

<glyph glyph-name="arrows-from-dotted-line_v2-1" unicode="&#xe814;" d="M583 308c-23 0-41 19-41 42 0 23 18 42 41 42 23 0 42-19 42-42 0-23-19-42-42-42z m-333 84c-23 0-42-19-42-42 0-23 19-42 42-42 23 0 42 19 42 42 0 23-19 42-42 42z m208-42c0 23-18 42-41 42-23 0-42-19-42-42 0-23 19-42 42-42 23 0 41 19 41 42z m292 42c-23 0-42-19-42-42 0-23 19-42 42-42 23 0 42 19 42 42 0 23-19 42-42 42z m-299 438l-75-75 30-29 73 73v-241h42v241l73-73 30 29-75 75c-27 27-71 27-98 0z m70-929v241h-42v-241l-73 73-30-29 75-75c13-13 31-20 49-20 18 0 36 7 49 20l75 75-30 29-73-73z" horiz-adv-x="1000" />

<glyph glyph-name="attribution-pen" unicode="&#xe815;" d="M1000 225c0-23-19-42-42-42h-291c-23 0-42-18-42-41 0-23 19-42 42-42h125c68 0 125-56 125-125 0-69-57-125-125-125h-750c-23 0-42 19-42 42 0 23 19 41 42 41h750c23 0 41 19 41 42 0 23-18 42-41 42h-125c-69 0-125 56-125 125 0 68 56 125 125 125h291c23 0 42-19 42-42z m-988-196c-10 10-15 25-11 39l68 292c14 59 59 107 116 125l154 48 281 280c47 47 130 47 177 0 23-23 36-55 36-88 0-33-13-65-36-88l-280-280-49-154c-18-58-65-103-125-116l-292-69c-3 0-6-1-9-1-11 0-22 4-30 12v0z m405 463l58-59 263 262c7 8 12 19 12 30 0 11-5 22-12 30-16 15-44 15-59 0l-262-262v-1z m-266-151l-35-150 105 105c16 17 42 17 59 0 16-16 16-42 0-58l-105-105 149 35c31 7 55 30 64 59l42 133-86 87-134-42c-29-9-52-34-59-64z" horiz-adv-x="1000" />

<glyph glyph-name="attribution-pencil" unicode="&#xe816;" d="M375 183h66c45 0 87 18 118 49l404 405c24 23 37 55 37 88 0 33-13 65-37 88-48 49-128 49-176 0l-405-404c-32-32-49-74-49-118v-66c0-23 19-42 42-42v0z m530 572c8-8 12-19 12-30 0-11-4-22-12-30l-54-53-59 58 54 54c16 16 42 16 59 0v1z m-488-464c0 22 8 44 24 59l292 292 59-59-292-292c-16-16-37-24-59-24h-24v24z m583-399c0-23-19-42-42-42-64 0-95 47-118 81-20 31-31 44-48 44-22 0-38-18-63-48-29-35-66-77-126-77-61 0-97 43-125 78-25 29-40 47-61 47-17 0-27-10-49-38-30-37-71-87-160-87-115 0-208 93-208 208 0 115 93 209 208 209 23 0 42-19 42-42 0-23-19-42-42-42-68 0-125-56-125-125 0-68 57-125 125-125 50 0 70 25 96 57 25 30 56 68 113 68 61 0 96-43 125-78 24-29 40-47 61-47 20 0 37 19 62 48 30 35 66 77 127 77 61 0 95-46 118-81 20-31 31-44 48-44 23 0 42-18 42-41z" horiz-adv-x="1000" />

<glyph glyph-name="book-user" unicode="&#xe817;" d="M479 579c0 58 47 104 104 104 58 0 105-46 105-104 0-57-47-104-105-104-57 0-104 47-104 104z m-66-306c19-12 45-6 57 14 23 38 68 63 113 63 46 0 91-25 114-63 8-13 21-20 35-20 8 0 15 2 22 6 20 12 26 37 14 57-39 64-109 103-185 103-75 0-146-39-184-103-12-20-6-45 14-57z m504 369v-584c0-115-94-208-209-208h-458c-92 0-167 75-167 167v625c0 115 94 208 209 208h416c115 0 209-93 209-208z m-209 125h-375v-584h500v459c0 69-56 125-125 125z m-541-125v-482c24 15 53 23 83 23v576c-48-17-83-63-83-117z m666-584v42h-583c-46 0-83-37-83-83 0-46 37-84 83-84h458c69 0 125 56 125 125z" horiz-adv-x="1000" />

<glyph glyph-name="camera" unicode="&#xe818;" d="M792 683h-21l-91 118c-12 15-27 28-44 36-17 9-36 13-55 13l-161 0c-20 0-38-4-56-13-17-8-32-21-43-36l-91-118h-22c-55 0-108-22-147-61-39-39-61-92-61-147l0-417c0-55 22-108 61-147 39-39 92-61 147-61h584c55 0 108 22 147 61 39 39 61 92 61 147v417c0 55-22 108-61 147-39 39-92 61-147 61z m-405 67c3 6 8 10 14 12 6 3 12 5 19 5h161c6 0 12-2 18-5 6-2 11-6 15-12l51-67h-330l52 67z m530-692c0-33-13-65-37-88-23-24-55-37-88-37h-584c-33 0-65 13-88 37-23 23-37 55-37 88v417c0 33 14 65 37 88 23 24 55 37 88 37h584c33 0 65-13 88-37 24-23 37-55 37-88v-417z m-417 459c-49 0-98-15-139-42-41-28-73-67-92-113-19-45-24-96-14-144 9-49 33-93 68-128 35-35 80-59 128-68 49-10 99-5 145 14 45 19 84 51 112 92 27 41 42 89 42 139 0 66-26 130-73 176-47 47-111 74-177 74z m0-417c-33 0-65 10-93 28-27 18-48 44-61 75-13 30-16 64-9 96 6 33 22 62 45 86 24 23 53 39 86 45 32 7 65 3 96-9 30-13 56-34 75-62 18-27 28-59 28-92 0-44-18-87-49-118-31-31-74-49-118-49z" horiz-adv-x="1000" />

<glyph glyph-name="database" unicode="&#xe819;" d="M1000 371c0 28-6 56-19 81-12 25-30 47-52 65 30 24 53 57 64 94 11 37 9 77-3 114-13 37-37 68-69 91-32 22-70 34-108 34h-625c-39 0-77-12-109-34-32-23-56-54-69-91-12-37-14-77-3-114 11-37 34-70 64-94-22-18-40-40-52-65-13-25-19-53-19-81 0-28 6-56 19-81 12-26 30-48 52-65-30-24-53-57-64-94-11-38-9-77 3-114 13-37 37-69 69-91 32-23 70-35 109-34h625c38-1 76 11 108 34 32 22 56 54 69 91 12 37 14 76 3 114-11 37-34 70-64 94 22 17 40 40 52 65 13 25 19 53 19 81z m-917 292c0 27 11 54 31 73 19 20 46 31 74 31h20v-42c0-11 5-22 13-29 7-8 18-13 29-13 11 0 22 5 30 13 7 7 12 18 12 29v42h83v-42c0-11 4-22 12-29 8-8 19-13 30-13 11 0 21 5 29 13 8 7 12 18 12 29v42h355c27 0 54-11 73-31 20-19 31-46 31-73 0-28-11-55-31-74-19-20-46-31-73-31h-625c-28 0-55 11-74 31-20 19-31 46-31 74z m834-584c0-27-11-54-31-73-19-20-46-31-73-31h-625c-28 0-55 11-74 31-20 19-31 46-31 73 0 28 11 54 31 74 19 19 46 30 74 30h20v-41c0-11 5-22 13-30 7-8 18-12 29-12 11 0 22 4 30 12 7 8 12 19 12 30v41h83v-41c0-11 4-22 12-30 8-8 19-12 30-12 11 0 21 4 29 12 8 8 12 19 12 30v41h355c27 0 54-11 73-30 20-20 31-46 31-74z m-729 188c-28 0-55 11-74 30-20 20-31 46-31 74 0 28 11 54 31 74 19 19 46 30 74 30h20v-42c0-11 5-21 13-29 7-8 18-12 29-12 11 0 22 4 30 12 7 8 12 18 12 29v42h83v-42c0-11 4-21 12-29 8-8 19-12 30-12 11 0 21 4 29 12 8 8 12 18 12 29v42h355c27 0 54-11 73-30 20-20 31-46 31-74 0-28-11-54-31-74-19-19-46-30-73-30h-625z" horiz-adv-x="1000" />

<glyph glyph-name="up-open-big" unicode="&#xe81a;" d="M804 130l-372 358-370-358q-26-22-50 0-24 24 0 50l396 390q26 26 48 0l396-390q24-26 0-50-26-22-48 0z" horiz-adv-x="864" />

<glyph glyph-name="up-open-mini" unicode="&#xe81b;" d="M62 230q-26-22-50 0-24 24 0 50l196 190q26 26 48 0l196-190q24-26 0-50-24-22-50 0l-170 158z" horiz-adv-x="464" />

<glyph glyph-name="down-open-big" unicode="&#xe81c;" d="M63 570l370-356 372 356q22 26 48 0 26-22 0-48l-396-392q-22-22-48 0l-396 392q-26 26 0 48 24 24 50 0z" horiz-adv-x="866" />

<glyph glyph-name="down-open-mini" unicode="&#xe81d;" d="M405 470q22 26 48 0 26-22 0-48l-196-192q-22-22-48 0l-196 192q-26 26 0 48 24 24 50 0l170-156z" horiz-adv-x="466" />

<glyph glyph-name="right-open-mini" unicode="&#xe81e;" d="M13 180l158 170-158 172q-26 26 0 48 26 26 48 0l192-194q24-26 0-50l-192-194q-22-26-48 0-26 22 0 48z" horiz-adv-x="265" />

<glyph glyph-name="left-open-mini" unicode="&#xe81f;" d="M252 180q26-26 0-48-26-26-48 0l-192 194q-24 24 0 50l192 194q22 26 48 0 26-22 0-48l-156-172z" horiz-adv-x="265" />

<glyph glyph-name="left-open-big" unicode="&#xe820;" d="M452-20q26-26 0-48-26-26-48 0l-392 394q-24 24 0 50l392 394q22 26 48 0 26-22 0-48l-358-372z" horiz-adv-x="465" />

<glyph glyph-name="right-open-big" unicode="&#xe821;" d="M13-20l358 370-358 372q-26 26 0 48 26 26 48 0l392-394q24-26 0-50l-392-394q-22-26-48 0-26 22 0 48z" horiz-adv-x="465" />

<glyph glyph-name="infinity" unicode="&#xe822;" d="M766 584c-66 0-126-27-168-71l-57-58 61-63 59 60c26 28 64 45 105 45 80 0 146-66 146-147 0-81-66-146-146-146-41 0-79 17-105 44-230 236-258 265-259 265-42 44-102 71-168 71-129 0-234-105-234-234 0-129 105-234 234-234 66 0 126 27 168 71l57 58-61 63-59-60c-26-27-63-44-105-44-80 0-146 65-146 146 0 81 66 147 146 147 42 0 79-17 105-45 10-10 256-263 259-265 42-44 102-71 168-71 129 0 234 105 234 234 0 129-105 234-234 234z" horiz-adv-x="1000" />

<glyph glyph-name="plus" unicode="&#xe823;" d="M70 320c-10 10-15 20-15 30 5 30 25 50 50 50h785c25 0 45-20 45-45s-20-45-45-45h-785c-15 0-25 5-35 10z m390-375c-5 10-10 20-10 35l0 750c0 25 20 50 50 50 25 0 50-20 50-50l0-750c0-25-20-50-50-50-15 0-30 5-40 15z" horiz-adv-x="1000" />

<glyph glyph-name="cloud-upload" unicode="&#xe824;" d="M640 333c-11-16-33-19-48-6l-58 52v-174c0-21-15-38-34-38-19 0-34 17-34 38v174l-58-52c-15-13-36-10-48 6-12 16-10 40 5 53l114 101c5 5 13 8 21 9 0 0 0 0 0 0h0c8 0 16-4 22-9l113-101c15-13 17-37 5-53z m-304 266c43 76 120 126 206 126 131 0 238-114 246-257 3 0 6 0 9 0 112 0 203-101 203-226 0-125-91-226-203-226h-530c-147 0-267 132-267 296 0 164 120 297 267 297 24 0 47-3 69-10z m206 50c-70 0-131-45-160-112-7-17-26-26-43-18-22 9-46 14-72 14-110 0-199-98-199-221 0-122 89-221 199-221h530c74 0 135 68 135 151 0 83-61 150-135 150-13 0-24-2-35-5-11-3-23 0-32 8-8 8-12 21-11 33 1 8 1 16 1 24 0 109-79 197-178 197z" horiz-adv-x="1000" />

<glyph glyph-name="send" unicode="&#xe825;" d="M715 565l-330-229-345 115c-24 8-40 31-40 56 0 26 17 48 41 56l882 284c21 7 44 1 60-14 15-16 21-39 14-60l-284-882c-8-24-30-41-56-41-25 0-48 16-56 40l-115 347 229 328h0z" horiz-adv-x="1000" />

<glyph glyph-name="calendar-google" unicode="&#xe826;" d="M763 613l-237 27-289-27-26-263 26-263 263-33 263 33 27 270-27 256z m-418-408c-20 13-33 33-41 58l46 19c4-16 11-28 22-37 10-8 22-13 37-13 15 0 28 5 38 14s16 21 16 35c0 14-5 26-16 35s-26 13-43 13h-26v46h23c15 0 27 4 37 11 10 8 15 19 15 33 0 12-4 22-13 29s-20 11-34 11c-14 0-24-3-32-11s-14-16-17-26l-46 19c6 17 17 32 33 45 17 13 37 19 62 19 19 0 35-3 50-10 15-8 26-18 35-30 8-13 12-27 12-43 0-16-4-30-11-41-8-11-18-20-29-25v-3c15-6 27-16 37-29 9-13 14-28 14-46s-5-34-14-48c-9-14-21-25-37-33-16-8-34-12-54-12-23 0-44 7-64 20z m280 226l-50-36-25 38 90 65h35v-306h-50l0 239z m138-581l237 237-118 53-119-53-52-119 52-118z m-579 118l53-118h526v237h-526l-53-119z m-105 882c-44 0-79-35-79-79v-684l118-53 119 53v526h526l53 119-53 118h-684z m-79-763v-158c0-44 35-79 79-79h158v237h-237z m763 526v-526h237v526l-118 53-119-53z m237 0v158c0 44-35 79-79 79h-158v-237h237z" horiz-adv-x="1000" />

<glyph glyph-name="messenger" unicode="&#xe827;" d="M500 850c-282 0-500-206-500-485 0-146 60-272 157-359 8-7 13-17 13-28l3-89a40 40 0 0 1 56-36l100 44c8 4 17 4 26 2 46-12 94-19 145-19 282 0 500 206 500 485s-218 485-500 485z m-300-627l147 233a75 75 0 0 0 108 20l117-87a30 30 0 0 1 36 0l158 119c21 16 48-9 34-31l-147-233a75 75 0 0 0-108-20l-117 88a30 30 0 0 1-36-1l-158-119c-21-16-48 9-34 31z" horiz-adv-x="1000" />

<glyph glyph-name="orcid" unicode="&#xe828;" d="M578 487h-92v-310h95c137 0 168 103 168 155 0 84-54 155-171 155z m-78 363c-276 0-500-224-500-500s224-500 500-500 500 224 500 500-224 500-500 500z m-163-498v-229h-60v418h60v-189z m-30 237c-22 0-39 18-39 39 0 22 17 40 39 40 22 0 40-18 40-40s-18-39-40-39z m282-467h-164v419h163c155 0 223-110 223-209 0-108-84-210-222-210z" horiz-adv-x="1000" />

<glyph glyph-name="trustpilot" unicode="&#xe829;" d="M1051 468h-401l-124 382-124-382-402 0 325-236-124-382 325 236 325-236-124 382 324 236z" horiz-adv-x="1051" />

<glyph glyph-name="booking" unicode="&#xe82a;" d="M465 321h-56c-18-2-27-13-27-34v-99l83 0h0c40 0 66 25 66 67 0 41-26 66-66 66z m48 136c0 36-22 58-58 58h-42c-21-2-31-13-31-35v-26-57h74c42 0 57 32 57 60z m510 201c0 106-87 192-192 192h-639c-106 0-192-86-192-192v-616c0-1 0-2 0-3l0-189h192c0 0 0 0 0 0h639c106 0 192 86 192 192l0 616z m-565-553h-170v439c1 27 23 50 50 51h12v0h106c93 0 153-50 153-127 0-51-26-80-41-93l-13-11 15-9h0c36-20 58-60 58-107 0-87-67-143-170-143z m274 0c-33 0-60 27-60 61 0 33 27 60 60 60 33 0 61-27 61-60 0-34-28-61-61-61z" horiz-adv-x="1022" />

<glyph glyph-name="outlook" unicode="&#xe82b;" d="M449 765c-6 0-11-1-17-2l0 0-275-61c-43-10-74-48-74-92l0-520c0-44 31-82 74-92l275-61 0 0c45-10 89 25 89 71l0 684c0 40-34 72-72 73z m134-145l0-232 74-52 280 194c-2 50-43 90-93 90l-261 0z m-281-114c64 0 115-73 115-166 0-94-51-167-115-167-64 0-114 73-114 167 0 93 50 166 114 166z m636-52l-264-182c-5-3-11-5-18-5-6 0-12 2-18 6l-55 38 0-254 261 0c51 0 94 42 94 94l0 303z m-636-10c-24 0-52-45-52-104 0-60 28-105 52-105 25 0 52 45 52 105 0 59-27 104-52 104z" horiz-adv-x="1000" />

<glyph glyph-name="email" unicode="&#xe82c;" d="M731 773h-539c-51 0-100-20-136-56-36-36-56-85-56-136l0-462c0-51 20-100 56-136 36-36 85-56 136-56h539c51 0 100 20 136 56 36 36 56 85 56 136v462c0 51-20 100-56 136-36 36-85 56-136 56z m-539-77h539c23 0 45-7 64-20 19-13 34-31 43-52l-295-295c-21-22-51-34-81-34-31 0-60 12-82 34l-295 295c9 21 24 39 43 52 19 13 41 20 64 20z m539-692h-539c-30 0-60 12-81 34-22 21-34 51-34 81v404l249-248c36-36 85-57 136-57 51 0 99 21 136 57l248 248v-404c0-30-12-60-34-81-21-22-51-34-81-34z" horiz-adv-x="923" />

<glyph glyph-name="phone" unicode="&#xe82d;" d="M852 741l-41 35c-46 46-122 46-168 0-1-1-73-94-73-94-43-46-43-119 0-164l45-57c-56-127-143-215-266-267l-57 45c-45 44-118 44-164 0 0 0-93-71-94-72-47-47-47-122-2-167l39-44c44-44 103-68 168-68 294 0 683 389 683 683 0 64-24 124-70 170v0z m-613-776c-44 0-84 16-112 44l-38 44c-16 16-17 42-2 58 0 0 92 71 93 72 16 16 44 16 60 0 1-1 78-63 78-63 11-8 25-10 38-5 159 60 273 174 339 338 5 13 3 28-6 39 0 0-62 77-62 78-17 17-17 43 0 60 1 1 72 93 72 93 16 15 42 14 60-3l40-35c29-30 46-70 46-114 0-268-376-606-606-606z" horiz-adv-x="923" />

<glyph glyph-name="website" unicode="&#xe82e;" d="M462 812c-92 0-181-27-257-78-76-51-135-123-170-207-35-85-44-177-26-267 18-90 62-172 126-236 65-65 147-109 237-127 89-18 182-8 266 27 85 34 157 94 207 170 51 76 78 165 78 256 0 122-49 240-135 326-87 87-204 135-326 136z m333-270h-125c-27 65-64 125-108 180 98-27 182-92 233-180z m-160-192c-1-39-7-78-19-115h-309c-12 37-18 76-18 115 0 39 6 78 18 115h309c12-37 18-76 19-115z m-297-192h248c-33-65-75-124-124-177-50 53-92 112-124 177z m0 384c32 65 74 124 124 177 49-53 91-112 124-177h-248z m24 180c-45-55-81-115-109-180h-124c51 88 134 153 233 180z m-267-257h132c-20-75-20-155 0-230h-132c-24 75-24 155 0 230z m34-307h124c28-65 64-125 109-180-99 27-182 92-233 180z m433-180c44 55 81 115 108 180h125c-51-88-135-153-233-180z m267 257h-132c20 75 20 155 0 230h132c23-75 23-155 0-230z" horiz-adv-x="923" />

<glyph glyph-name="address" unicode="&#xe82f;" d="M500 819c-190 0-344-154-344-344 0-333 325-587 325-587 11-9 27-9 39 0 0 0 324 254 324 587 0 190-155 344-344 344z m0-63c156 0 281-125 281-281 0-273-247-488-281-517-34 29-281 244-281 517 0 156 125 281 281 281z m0-125c-86 0-156-70-156-156 0-86 70-156 156-156s156 70 156 156c0 86-70 156-156 156z m0-62c52 0 94-42 94-94 0-52-42-94-94-94s-94 42-94 94c0 52 42 94 94 94z" horiz-adv-x="1000" />

<glyph glyph-name="hyperlink" unicode="&#xe830;" d="M333 569c-120 0-218-98-218-219 0-121 98-219 218-219h42c17 0 31-14 31-31 0-17-14-31-31-31h-42c-155 0-281 126-281 281 0 155 126 281 281 281h42c17 0 31-14 31-31 0-17-14-31-31-31h-42z m11-219c0 17 14 31 31 31h250c17 0 31-14 31-31 0-17-14-31-31-31h-250c-17 0-31 14-31 31z m281 281c-17 0-31-14-31-31 0-17 14-31 31-31h42c120 0 218-98 218-219 0-121-98-219-218-219h-42c-17 0-31-14-31-31 0-17 14-31 31-31h42c155 0 281 126 281 281 0 155-126 281-281 281h-42z" horiz-adv-x="1000" />

<glyph glyph-name="company" unicode="&#xe831;" d="M792 767h-584c-46 0-83-38-83-84v-750h750v750c0 46-37 84-83 84z m-334-750v166h84v-166h-84z m334 0h-167v208c1 22-15 40-37 42-2 0-3 0-5 0h-166c-22 1-41-16-42-37 0-2 0-3 0-5v-208h-167v666h584v-666z m-334 500h-83v83h83v-83z m167 0h-83v83h83v-83z m-167-167h-83v83h83v-83z m167 0h-83v83h83v-83z" horiz-adv-x="1000" />

<glyph glyph-name="eye" unicode="&#xe832;" d="M150 436c54 85 176 227 391 227 215 0 337-142 391-227 34-53 34-119 0-172-54-85-176-226-391-226-215 0-337 141-391 226-34 53-34 119 0 172h0z m59-137c46-73 151-195 332-195 181 0 286 122 332 195 20 31 20 71 0 102-46 73-151 195-332 195-181 0-286-122-332-195-20-31-20-71 0-102z m332 218c96 0 173-75 173-167 0-92-77-167-173-167-96 0-174 75-174 167 0 92 78 167 174 167z m0-267c57 0 104 45 104 100 0 55-47 100-104 100-58 0-104-45-104-100 0-55 46-100 104-100z" horiz-adv-x="1042" />

<glyph glyph-name="eye-crossed" unicode="&#xe833;" d="M890 442c-28 46-64 87-105 123l84 82c18 18 18 48-1 65-9 8-20 13-33 13-12 0-23-5-32-13l-96-93c-62 34-132 52-204 52-1 0-2 0-3 0-214 0-336-143-390-229-17-27-27-59-27-92 0-32 10-64 27-91 29-46 64-87 105-123l-84-82c-9-8-14-20-14-32 0-12 4-24 13-33 9-9 21-14 34-14 13 0 24 5 33 13 0 0 0 1 1 1l95 93c62-34 133-52 205-52h2c215 0 336 143 390 229 18 27 27 59 27 91 0 33-9 65-27 92v0z m-80-135c-43-69-141-185-310-185h-2c-46 0-93 10-135 29l47 46c27-16 58-24 90-24 61 0 118 29 151 79 39 57 41 129 6 187l61 60c37-30 67-65 92-105 17-27 17-60 0-87h0z m-620 0c-17 27-17 60 0 87 43 69 142 185 310 185h2c47 0 93-10 135-29l-46-46c-28 16-59 24-91 24-61 0-117-30-151-79-38-57-40-129-6-187l-61-60c-36 30-67 65-92 105h0z m310 129c6 0 13-1 19-2l-104-102c-2 6-2 12-2 18 0 48 39 86 87 86z m87-86c0-47-39-85-87-85-6 0-13 1-19 2l104 102c2-6 2-12 2-19z" horiz-adv-x="1000" />

<glyph glyph-name="close" unicode="&#xe834;" d="M47-99c-12 0-24 5-33 14-18 18-18 47 0 65l807 808c18 18 48 18 66 0 18-18 18-48 0-66l-808-807c-9-9-21-14-32-14z m807 0c-12 0-24 5-33 14l-807 807c-18 18-18 48 0 66 18 18 47 18 65 0l808-808c18-18 18-47 0-65-9-9-21-14-33-14z" horiz-adv-x="900" />

<glyph glyph-name="info" unicode="&#xe835;" d="M471 687c-202 0-366-164-366-366 0-202 164-365 366-365 202 0 365 163 365 365 0 202-163 366-365 366z m0-670c-169 0-305 136-305 304 0 169 136 305 305 305 168 0 304-136 304-305 0-168-136-304-304-304z m61 304v-213h-61v213h-61v61h61c33 0 61-27 61-61z m-107 168c0 25 20 46 46 46 25 0 45-21 45-46 0-25-20-46-45-46-26 0-46 21-46 46z" horiz-adv-x="941" />

<glyph glyph-name="info-filled" unicode="&#xe836;" d="M889 350c0-77-23-152-66-216-43-64-103-113-174-143-71-29-149-37-225-22-75 15-144 52-199 106-54 55-91 124-106 199-15 76-7 154 22 225 30 71 79 131 143 174 64 43 139 66 216 66 103-1 202-42 275-114 72-73 113-172 114-275z m-324 0c0 17-7 34-19 46-12 12-29 19-46 19h-65v-65h65v-227h65v227z m-65 227c-10 0-19-3-27-9-8-5-14-12-18-21-4-9-4-19-3-28 2-10 7-18 14-25 6-7 15-12 25-14 9-1 19 0 28 3 9 4 16 10 21 18 6 8 9 18 9 27 0 13-6 25-15 34-9 10-21 15-34 15z" horiz-adv-x="1000" />

<glyph glyph-name="user" unicode="&#xe837;" d="M521 392c-37 0-73 11-104 31-31 21-55 50-69 84-15 35-18 72-11 109 7 36 25 70 51 96 27 26 60 44 96 51 37 7 74 4 109-11 34-14 63-38 84-69 20-30 31-67 31-104 0-49-19-97-55-132-35-35-82-55-132-55z m0 291c-21 0-41-6-58-17-17-12-30-28-38-47-8-19-10-40-6-60 4-20 14-39 28-53 15-15 33-25 54-29 20-4 41-2 60 6 19 8 35 21 46 38 12 17 18 38 18 58 0 28-11 54-30 74-20 19-46 30-74 30z m312-708v21c0 83-33 162-91 221-59 58-138 91-221 91-83 0-162-33-221-91-59-59-92-138-92-221l0-21c0-11 5-22 13-30 7-7 18-12 29-12 11 0 22 5 30 12 7 8 12 19 12 30v21c0 61 24 119 67 162 43 43 101 67 162 67 61 0 119-24 162-67 43-43 67-101 67-162v-21c0-11 4-22 12-30 8-7 19-12 30-12 11 0 21 5 29 12 8 8 12 19 12 30z" horiz-adv-x="1000" />

<glyph glyph-name="send-1" unicode="&#xe857;" d="M715 565l-330-229-345 115c-24 8-40 31-40 56 0 26 17 48 41 56l882 284c21 7 44 1 60-14 15-16 21-39 14-60l-284-882c-8-24-30-41-56-41-25 0-48 16-56 40l-115 347 229 328h0z" horiz-adv-x="1000" />

<glyph glyph-name="twitter" unicode="&#xf099;" d="M904 622q-37-54-90-93 0-8 0-23 0-73-21-145t-64-139-103-117-144-82-181-30q-151 0-276 81 19-2 43-2 126 0 224 77-59 1-105 36t-64 89q19-3 34-3 24 0 48 6-63 13-104 62t-41 115v2q38-21 82-23-37 25-59 64t-22 86q0 49 25 91 68-83 164-133t208-55q-5 21-5 41 0 75 53 127t127 53q79 0 132-57 61 12 115 44-21-64-80-100 52 6 104 28z" horiz-adv-x="928.6" />

<glyph glyph-name="facebook" unicode="&#xf09a;" d="M535 843v-147h-87q-48 0-65-20t-17-60v-106h164l-22-165h-142v-424h-171v424h-142v165h142v122q0 104 58 161t155 57q82 0 127-7z" horiz-adv-x="571.4" />

<glyph glyph-name="rss" unicode="&#xf09e;" d="M214 100q0-45-31-76t-76-31-76 31-31 76 31 76 76 31 76-31 31-76z m286-69q1-15-9-26-10-12-27-12h-75q-14 0-24 9t-11 23q-12 128-103 219t-219 103q-14 1-23 11t-9 24v75q0 16 12 26 9 10 24 10h3q89-7 170-45t145-101q63-63 101-145t45-171z m286-1q1-15-10-26-10-11-26-11h-80q-14 0-25 10t-10 23q-7 120-57 228t-129 188-188 129-227 57q-14 1-24 11t-10 24v80q0 16 11 26 10 10 25 10h1q147-8 280-67t238-164q104-104 164-238t67-280z" horiz-adv-x="785.7" />

<glyph glyph-name="linkedin" unicode="&#xf0e1;" d="M195 501v-553h-184v553h184z m12 171q0-41-29-68t-75-27h-1q-46 0-74 27t-28 68q0 41 29 68t75 27 74-27 29-68z m650-407v-317h-183v296q0 59-23 92t-71 33q-35 0-58-19t-36-48q-6-17-6-45v-309h-184q1 223 1 361t0 165l-1 27h184v-80h-1q11 18 23 31t31 29 49 24 64 9q95 0 153-63t58-186z" horiz-adv-x="857.1" />

<glyph glyph-name="github" unicode="&#xf113;" d="M357 171q0-22-7-45t-24-43-40-19-41 19-24 43-7 45 7 46 24 43 41 19 40-19 24-43 7-46z m357 0q0-22-7-45t-24-43-40-19-41 19-24 43-7 45 7 46 24 43 41 19 40-19 24-43 7-46z m90 0q0 67-39 114t-104 47q-23 0-109-12-40-6-88-6t-87 6q-85 12-109 12-66 0-104-47t-39-114q0-49 18-85t45-58 68-33 78-17 83-4h94q46 0 83 4t78 17 69 33 45 58 18 85z m125 99q0-116-34-185-22-43-59-74t-79-48-95-27-96-12-93-3q-43 0-79 2t-82 7-85 17-77 29-67 45-48 64q-35 69-35 185 0 132 76 221-15 45-15 95 0 64 28 121 61 0 106-22t106-69q82 20 172 20 83 0 157-18 58 46 104 67t105 22q29-57 29-121 0-49-15-94 76-89 76-222z" horiz-adv-x="928.6" />

<glyph glyph-name="youtube" unicode="&#xf167;" d="M542 156v-118q0-37-22-37-13 0-25 12v168q12 12 25 12 22 0 22-37z m189-1v-25h-51v25q0 38 25 38t26-38z m-540 122h60v52h-174v-52h59v-318h55v318z m161-318h50v276h-50v-211q-17-23-32-23-10 0-11 11-1 2-1 20v203h-50v-218q0-28 5-41 7-21 32-21 27 0 57 34v-30z m240 83v110q0 41-5 55-10 31-40 31-28 0-52-30v121h-50v-370h50v27q25-31 52-31 30 0 40 31 5 15 5 56z m188 6v7h-51q0-29-1-34-4-20-22-20-26 0-26 38v49h100v57q0 44-15 65-22 28-59 28-38 0-60-28-15-21-15-65v-96q0-44 16-65 22-29 60-29 40 0 60 30 10 15 12 30 1 5 1 33z m-339 509v117q0 39-24 39t-24-39v-117q0-39 24-39t24 39z m401-419q0-131-14-195-8-33-33-56t-57-25q-102-12-309-12t-310 12q-32 3-57 25t-32 56q-15 62-15 195 0 131 15 195 7 33 32 56t57 26q103 11 310 11t309-11q33-4 58-26t32-56q14-62 14-195z m-557 712h57l-67-223v-151h-56v151q-8 42-34 119-21 57-37 104h60l39-147z m207-186v-97q0-46-16-66-21-29-59-29-37 0-59 29-15 21-15 66v97q0 45 15 66 22 28 59 28 38 0 59-28 16-21 16-66z m187 91v-279h-51v31q-30-35-58-35-25 0-33 21-4 13-4 42v220h51v-205q0-19 0-20 2-12 12-12 15 0 32 24v213h51z" horiz-adv-x="857.1" />

<glyph glyph-name="stackoverflow" unicode="&#xf16c;" d="M719-61h-624v268h-89v-357h803v357h-90v-268z m-525 293l18 87 437-92-18-87z m57 208l38 82 404-189-37-81z m112 199l57 69 343-287-57-68z m222 211l266-358-71-53-267 357z m-401-821v89h447v-89h-447z" horiz-adv-x="857.1" />

<glyph glyph-name="instagram" unicode="&#xf16d;" d="M571 350q0 59-41 101t-101 42-101-42-42-101 42-101 101-42 101 42 41 101z m77 0q0-91-64-156t-155-64-156 64-64 156 64 156 156 64 155-64 64-156z m61 229q0-21-15-36t-37-15-36 15-15 36 15 36 36 15 37-15 15-36z m-280 123q-4 0-43 0t-59 0-54-2-57-5-40-11q-28-11-49-32t-33-49q-6-16-10-40t-6-58-1-53 0-59 0-43 0-43 0-59 1-53 6-58 10-40q12-28 33-49t49-32q16-6 40-11t57-5 54-2 59 0 43 0 42 0 59 0 54 2 58 5 39 11q28 11 50 32t32 49q6 16 10 40t6 58 1 53 0 59 0 43 0 43 0 59-1 53-6 58-10 40q-11 28-32 49t-50 32q-16 6-39 11t-58 5-54 2-59 0-42 0z m428-352q0-128-3-177-5-116-69-180t-179-69q-50-3-177-3t-177 3q-116 6-180 69t-69 180q-3 49-3 177t3 177q5 116 69 180t180 69q49 3 177 3t177-3q116-6 179-69t69-180q3-49 3-177z" horiz-adv-x="857.1" />

<glyph glyph-name="flickr" unicode="&#xf16e;" d="M696 779q67 0 114-48t47-113v-536q0-66-47-113t-114-48h-535q-67 0-114 48t-47 113v536q0 66 47 113t114 48h535z m-306-429q0 49-35 84t-84 34-83-34-35-84 35-84 83-34 84 34 35 84z m314 0q0 49-34 84t-84 34-84-34-34-84 34-84 84-34 84 34 34 84z" horiz-adv-x="857.1" />

<glyph glyph-name="tumblr" unicode="&#xf173;" d="M527 108l44-132q-12-19-61-37t-99-18q-58-1-107 15t-79 41-53 59-31 67-9 66v304h-94v120q40 14 72 39t51 50 32 57 19 55 8 49q1 3 3 5t4 2h136v-237h186v-140h-186v-289q0-17 3-31t13-30 28-23 45-8q44 1 75 16z" horiz-adv-x="571.4" />

<glyph glyph-name="dribbble" unicode="&#xf17d;" d="M571 13q-23 134-78 278h-1l-1-1q-9-3-24-9t-56-27-77-46-73-64-57-82l-9 6q103-84 234-84 73 0 142 29z m-103 339q-11 27-29 62-174-52-376-52 0-4 0-12 0-69 24-132t69-112q28 49 69 93t80 69 73 45 55 27l21 7q2 1 7 2t7 3z m-59 118q-67 119-137 211-77-36-130-104t-72-152q169 0 339 45z m381-178q-117 33-228 16 49-133 71-262 62 42 104 106t53 140z m-449 414q-1 0-1-1 0 1 1 1z m329-81q-103 91-241 91-43 0-87-10 73-95 137-214 39 15 73 34t54 34 36 32 21 23z m125-271q-2 129-83 229l-1-1q-5-7-11-13t-24-25-40-34-55-36-74-36q14-30 25-53 1-3 3-10t5-9q20 2 41 4t41 1 39-1 35-2 32-3 27-4 20-3 14-3z m62-4q0-117-57-215t-156-156-215-58-216 58-155 156-58 215 58 215 155 156 216 58 215-58 156-156 57-215z" horiz-adv-x="857.1" />

<glyph glyph-name="skype" unicode="&#xf17e;" d="M655 257q0 28-11 51t-27 38-41 27-46 19-49 13l-58 14q-17 4-25 6t-19 6-17 9-9 12-4 16q0 43 80 43 24 0 43-6t30-16 21-19 23-16 27-7q26 0 42 18t16 43q0 31-32 55t-79 38-101 13q-38 0-74-9t-67-26-49-48-19-72q0-34 10-60t32-42 44-27 58-18l81-20q51-12 63-20 18-11 18-34 0-21-23-36t-58-14q-29 0-51 9t-37 22-25 25-26 21-30 9q-28 0-42-17t-14-41q0-52 68-88t162-37q41 0 78 10t69 30 49 52 19 74z m202-121q0-89-63-152t-151-63q-73 0-131 45-43-9-83-9-80 0-153 31t-126 84-83 125-31 153q0 41 9 84-45 58-45 130 0 89 63 152t151 63q73 0 131-45 43 9 84 9 79 0 152-31t126-84 84-125 30-153q0-41-8-84 44-58 44-130z" horiz-adv-x="857.1" />

<glyph glyph-name="slack" unicode="&#xf198;" d="M848 417q34 0 57-23t24-56q0-54-52-73l-96-33 31-93q4-12 4-26 0-33-24-57t-56-24q-26 0-48 15t-29 40l-31 92-173-59 31-91q4-14 4-27 0-33-23-57t-57-24q-27 0-48 15t-29 41l-31 91-85-30q-17-5-28-5-34 0-57 22t-23 57q0 26 16 47t40 30l87 29-59 175-87-30q-14-5-27-5-33 0-56 23t-23 56q0 26 15 48t40 29l88 30-30 88q-4 14-4 27 0 33 23 57t57 24q26 0 48-16t29-40l30-89 173 59-30 89q-4 13-4 26 0 33 23 57t57 24q26 0 48-15t30-40l29-90 91 31q11 3 24 3 33 0 57-22t24-55q0-25-17-45t-41-29l-88-30 59-177 91 32q13 4 26 4z m-443-146l173 58-59 176-173-60z" horiz-adv-x="928.6" />

<glyph glyph-name="reddit" unicode="&#xf1a1;" d="M611 199q9-9 0-17-34-35-111-35t-111 35q-9 8 0 17 3 3 8 3t9-3q27-28 94-28 67 0 94 28 4 3 9 3t8-3z m-171 101q0-21-15-35t-35-15-35 15-15 35q0 21 15 36t35 14 35-15 15-35z m220 0q0-21-15-35t-35-15-35 15-15 35 15 35 35 15 35-14 15-36z m140 67q0 27-19 47t-48 19-48-20q-72 50-173 54l35 158 112-26q0-20 14-35t35-14 36 15 14 35-14 35-36 15q-30 0-44-28l-124 28q-10 3-14-9l-38-174q-101-4-173-54-19 20-48 20-28 0-48-19t-19-47q0-20 10-36t28-24q-4-16-4-32 0-79 79-135t188-57q110 0 188 57t78 135q0 18-4 32 17 8 27 24t10 36z m200-17q0-102-40-194t-106-160-160-106-194-40-194 40-160 106-106 160-40 194 40 194 106 160 160 106 194 40 194-40 160-106 106-160 40-194z" horiz-adv-x="1000" />

<glyph glyph-name="behance" unicode="&#xf1b4;" d="M1031 661h-285v-69h285v69z m-140-238q-51 0-82-29t-34-80h227q-10 109-111 109z m9-326q35 0 68 18t42 48h123q-55-171-238-171-119 0-190 73t-70 194q0 116 72 193t188 77q77 0 134-38t86-100 28-139q0-9-1-26h-367q0-62 32-96t93-33z m-745 28h165q114 0 114 93 0 100-111 100h-168v-193z m0 299h156q44 0 69 21t26 63q0 80-106 80h-145v-164z m-155 284h332q48 0 86-8t71-26 50-54 17-86q0-101-96-147 64-17 96-64t33-114q0-41-14-76t-37-58-55-39-67-24-75-7h-341v703z" horiz-adv-x="1142.9" />

<glyph glyph-name="steam" unicode="&#xf1b6;" d="M883 525q0-56-40-96t-96-40-97 40-39 96 39 97 97 39 96-39 40-97z m-430-414q0 58-41 99t-98 41q-15 0-30-4l58-23q43-17 61-59t1-85q-18-43-60-61t-85 0q-12 4-35 13t-34 14q18-34 51-54t73-20q58 0 98 40t41 99z m463 414q0 70-50 120t-120 50q-71 0-121-50t-50-120q0-71 50-121t121-49q70 0 120 49t50 121z m84 0q0-106-74-180t-180-74l-244-178q-6-72-61-122t-127-50q-68 0-120 43t-66 107l-128 51v240l217-88q44 27 97 27 7 0 19-1l159 227q1 104 75 178t179 74q105 0 180-75t74-179z" horiz-adv-x="1000" />

<glyph glyph-name="spotify" unicode="&#xf1bc;" d="M629 175q0 18-17 28-107 64-249 64-74 0-160-19-24-5-24-29 0-11 8-19t20-8q2 0 20 5 74 15 136 15 126 0 221-58 11-6 19-6 10 0 18 8t8 19z m54 120q0 22-20 34-132 79-306 79-85 0-169-24-27-7-27-36 0-14 10-23t24-10q4 0 20 4 69 19 141 19 155 0 272-69 13-8 21-8 14 0 24 10t10 24z m60 138q0 26-23 39-70 41-163 62t-191 21q-114 0-204-26-12-4-21-15t-9-27q0-17 12-29t28-11q7 0 23 4 74 21 171 21 89 0 173-19t141-53q12-7 23-7 16 0 28 11t12 29z m114-83q0-117-57-215t-156-156-215-58-216 58-155 156-58 215 58 215 155 156 216 58 215-58 156-156 57-215z" horiz-adv-x="857.1" />

<glyph glyph-name="soundcloud" unicode="&#xf1be;" d="M438 84l8 135-8 292q-1 5-5 9t-9 4q-5 0-9-4t-4-9l-7-292 7-135q1-5 5-9t8-3q12 0 14 12z m165 17l6 117-7 327q0 9-7 14-5 3-9 3t-9-3q-7-5-7-14l-1-3-5-323q0-1 6-132v0q0-6 3-10 5-6 13-6 6 0 11 5 5 4 5 11z m-583 189l11-71-11-70q-2-5-5-5t-5 5l-10 70 10 71q1 5 5 5t5-5z m48 44l14-115-14-113q-2-5-6-5-5 0-5 5l-13 113 13 115q0 5 5 5 4 0 6-5z m156-252z m-105 274l14-137-14-132q0-6-6-6-6 0-7 6l-12 132 12 137q1 6 7 6 6 0 6-6z m52 4l13-141-13-136q-1-8-7-8-8 0-8 8l-11 136 11 141q0 7 8 7 6 0 7-7z m53-11l12-130-12-137q-1-9-9-9-3 0-6 2t-2 7l-12 137 12 130q0 4 2 6t6 3q8 0 9-9z m214-265z m-162 347l12-212-12-137q0-4-3-7t-6-3q-9 0-10 10l-10 137 10 212q1 10 10 10 4 0 6-3t3-7z m53 48l10-261-10-136q0-5-3-8t-8-3q-10 0-11 11l-9 136 9 261q1 11 11 11 5 0 8-4t3-7z m54 22l10-282-10-135q-1-12-12-12-10 0-12 12l-9 135 9 282q0 5 4 9t8 4q5 0 9-4t3-9z m219-414z m-110 417l8-285-8-133q0-6-5-10t-9-4-10 3-4 11l-8 133 8 285q0 6 4 10t10 3 9-3 5-10z m55-11l8-275-8-131q0-6-5-11t-10-4-11 4-5 11l-6 131 6 275q1 7 5 11t11 5 10-5 5-11z m118-275l-8-129q0-7-5-12t-12-5-12 5-6 12l-3 64-3 65 6 355v2q1 8 7 13 5 4 11 4 5 0 8-3 8-4 9-14z m621 11q0-65-47-111t-111-46h-439q-7 1-12 6t-5 12v502q0 13 16 18 47 19 101 19 108 0 188-73t89-181q30 12 62 12 65 0 111-46t47-112z" horiz-adv-x="1285.7" />

<glyph glyph-name="vine" unicode="&#xf1ca;" d="M835 389v-111q-56-13-110-13-36-76-92-151t-102-120-71-60q-45-25-91 2-15 9-33 24t-48 47-57 72-60 102-59 136-51 176-39 218h158q14-122 39-223t58-177 68-131 78-109q94 94 160 227-79 40-124 122t-45 186q0 107 58 176t158 68q99 0 152-59t53-166q0-89-32-159-4-1-11-2t-25-1-36 3-34 14-28 29q17 58 17 103 0 48-16 73t-44 26q-30 0-48-28t-18-78q0-104 59-164t149-60q35 0 67 8z" horiz-adv-x="857.1" />

<glyph glyph-name="wechat" unicode="&#xf1d7;" d="M324 593q0 23-14 37t-37 14q-24 0-42-15t-19-36q0-22 19-36t42-14q23 0 37 13t14 37z m414-283q0 15-14 28t-36 12q-16 0-28-13t-13-27q0-16 13-28t28-13q22 0 36 12t14 29z m-131 283q0 23-14 37t-37 14q-24 0-42-15t-18-36q0-22 18-36t42-14q23 0 37 13t14 37z m354-283q0 15-15 28t-36 12q-15 0-27-13t-13-27q0-16 13-28t27-13q22 0 36 12t15 29z m-148 221q-18 3-40 3-94 0-173-43t-125-117-45-160q0-44 13-85-20-2-38-2-15 0-28 1t-31 4-25 4-30 6-28 5l-141-70 40 121q-162 114-162 274 0 94 54 173t148 125 203 45q98 0 185-36t146-102 77-146z m330-313q0-65-38-124t-104-108l31-101-111 60q-84-20-122-20-94 0-173 39t-125 107-46 147 46 148 125 107 173 39q90 0 169-39t127-108 48-147z" horiz-adv-x="1142.9" />

<glyph glyph-name="twitch" unicode="&#xf1e8;" d="M500 608v-242h-81v242h81z m222 0v-242h-81v242h81z m0-424l141 141v444h-666v-585h182v-121l121 121h222z m222 666v-565l-242-242h-182l-121-122h-121v122h-222v646l61 161h827z" horiz-adv-x="1000" />

<glyph glyph-name="yelp" unicode="&#xf1e9;" d="M431 114v-71q0-163-3-170-7-18-28-22-31-6-102 21t-90 49q-8 9-10 20 0 7 2 15 3 6 19 26t101 121q1 0 34 39 8 11 22 14t28-2q13-6 20-17t7-23z m-83 140q-1-31-29-39l-67-22q-153-49-163-49-19 1-30 20-6 14-9 42-5 42 0 93t17 69 31 18q8 0 113-43 40-16 64-26l47-19q13-5 20-17t6-27z m461-166q-4-30-51-90t-75-70q-21-8-36 3-7 6-102 161l-27 43q-7 11-6 25t11 26q19 24 46 14 1 0 67-22 113-37 135-44t26-12q16-12 12-34z m-375 353q3-57-30-68-32-10-64 40l-210 333q-5 20 10 35 23 24 116 50t125 17q23-5 28-25 1-10 12-170t13-212z m370-60q1-22-15-33-8-6-183-48-38-9-51-13l0 1q-13-3-25 2t-21 18q-17 26 0 49 1 0 42 57 70 95 84 114t19 21q15 11 36 1 27-12 68-74t46-94v-1z" horiz-adv-x="857.1" />

<glyph glyph-name="paypal" unicode="&#xf1ed;" d="M848 490q10-47-3-114-48-248-315-248h-24q-14 0-25-9t-13-24l-3-11-30-193-1-8q-3-15-14-24t-25-9h-140q-12 0-18 8t-5 20q5 32 14 94t15 94 15 93 15 94q3 21 24 21h73q75-2 132 11 98 22 160 81 57 53 87 137 13 39 19 74 1 4 2 4t2 1 3-2q44-33 55-90z m-96 157q0-60-26-132-45-130-168-176-64-22-141-23 0-1-50-1l-51 1q-55 0-65-54-2-4-48-295 0-6-7-6h-164q-12 0-21 9t-6 22l130 821q2 16 15 26t29 11h333q19 0 55-7t62-18q60-23 91-69t32-109z" horiz-adv-x="857.1" />

<glyph glyph-name="pinterest-1" unicode="&#xf231;" d="M0 517q0 60 21 113t58 93 85 69 103 44 113 14q88 0 164-37t123-108 47-160q0-54-10-105t-34-99-56-83-80-58-106-21q-38 0-75 18t-54 49q-5-22-15-63t-14-53-11-40-15-39-17-35-26-44-35-48l-7-3-5 6q-9 88-9 105 0 51 12 115t37 161 29 113q-18 36-18 94 0 47 29 87t74 41q34 0 53-23t19-57q0-37-24-106t-25-105q0-35 25-58t61-23q31 0 57 14t44 38 31 53 21 61 11 62 4 56q0 96-61 150t-160 54q-111 0-186-72t-75-183q0-25 7-48t15-36 15-26 7-17q0-15-8-40t-21-25q-1 0-9 1-29 9-51 31t-34 53-18 60-6 60z" horiz-adv-x="714.3" />

<glyph glyph-name="whatsapp" unicode="&#xf232;" d="M550 307q7 0 54-25t50-30q1-2 1-8 0-18-9-42-9-22-40-37t-57-15q-32 0-106 35-55 25-95 66t-82 103q-41 60-40 108v5q2 50 41 88 14 12 29 12 4 0 10-1t11-1q11 0 15-3t8-16q5-11 19-49t14-41q0-12-19-33t-20-26q0-3 3-8 19-41 57-76 31-30 84-57 7-4 13-4 8 0 30 27t29 28z m-114-296q71 0 136 28t112 74 75 112 28 136-28 136-75 112-112 75-136 28-135-28-112-75-75-112-28-136q0-113 67-205l-44-130 135 43q88-58 192-58z m0 771q86 0 164-34t134-89 90-135 33-163-33-163-90-134-134-90-164-34q-108 0-203 53l-233-75 76 226q-60 99-60 217 0 86 33 163t90 135 134 89 163 34z" horiz-adv-x="857.1" />

<glyph glyph-name="medium" unicode="&#xf23a;" d="M333 615v-655q0-14-7-23t-20-10q-10 0-19 4l-259 131q-12 5-20 18t-8 26v636q0 12 6 19t16 8q8 0 24-8l286-143q1-2 1-3z m36-56l298-484-298 149v335z m631-10v-589q0-14-8-22t-21-9-26 7l-246 123z m-2 67q0-2-143-234t-167-272l-218 353 181 294q9 16 29 16 8 0 14-3l302-151q2-1 2-3z" horiz-adv-x="1000" />

<glyph glyph-name="tripadvisor" unicode="&#xf262;" d="M363 294q0-22-15-37t-37-16q-21 0-37 16t-15 37q0 21 15 36t37 16q22 0 37-16t15-36z m644 0q0-22-15-37t-37-15-37 15-16 37 16 37 37 15 37-15 15-37z m-580 0q0 44-32 76t-76 31-76-31-31-76 31-76 76-32 76 32 32 76z m643 0q0 45-31 76t-76 32q-44 0-76-32t-32-76 31-76 77-31 76 31 31 76z m-596 0q0-65-45-111t-110-45q-64 0-110 46t-45 110 45 109 110 46 110-46 45-109z m644 0q0-64-45-109t-110-46q-65 0-110 46t-45 109 45 110 110 45q64 0 110-45t45-110z m-538-1q0 106-75 182t-182 75q-70 0-129-34t-94-94-35-129 35-130 94-94 129-34q106 0 182 75t75 183z m373 319q-142 62-310 62-178 0-320-61 65 0 125-26t101-68 69-102 25-124q0 64 24 122t66 101 99 68 121 28z m267-319q0 106-75 182t-182 75-182-75-76-182 76-183 182-75 182 75 75 183z m-148 315h214q-25-28-42-63t-22-64q61-85 61-188 0-87-43-161t-117-116-160-43q-74 0-139 31t-109 87q-26-32-72-100-6 12-30 46t-42 54q-44-55-109-87t-139-31q-87 0-161 43t-116 116-43 161q0 103 61 188-5 28-22 64t-42 63h204q83 56 198 88t241 31q125 0 235-31t194-88z" horiz-adv-x="1285.7" />

<glyph glyph-name="vimeo" unicode="&#xf27d;" d="M954 561q-6-132-186-363-185-241-313-241-79 0-134 147-25 89-74 269-40 146-87 146-10 0-71-42l-43 54q13 12 60 54t73 65q87 77 134 81 53 5 85-31t46-113q24-160 37-208 30-139 66-139 29 0 86 89 57 90 61 138 8 77-61 77-31 0-67-14 67 219 256 213 140-5 132-182z" horiz-adv-x="1000" />

<glyph glyph-name="snapchat" unicode="&#xf2ab;" d="M714 209q0 13-12 15-38 9-66 33t-45 61q-4 10-4 14 0 8 11 14t24 10 24 11 11 20q0 11-10 18t-22 7q-7 0-18-4t-17-5q-2 0-7 1 3 53 3 64 0 44-9 63-21 44-58 68t-85 24q-111 0-153-92-10-19-10-63 0-11 3-64-2-1-8-1-6 0-18 4t-16 4q-12 0-22-6t-10-18q0-12 11-20t24-11 24-10 11-14q0-4-4-14-35-77-110-94-13-2-13-15 0-25 77-38 1-2 3-14t7-17 13-5q6 0 21 2t22 3q19 0 37-9t30-18 32-18 43-8q24 0 44 8t32 18 30 18 37 9q8 0 23-3t21-2q9 0 13 6t6 17 3 13q77 13 77 38z m143 141q0-117-57-215t-156-156-215-58-216 58-155 156-58 215 58 215 155 156 216 58 215-58 156-156 57-215z" horiz-adv-x="857.1" />

<glyph glyph-name="telegram" unicode="&#xf2c6;" d="M664 121l82 386q5 25-6 36t-29 3l-482-185q-16-6-22-14t-2-15 18-11l124-38 286 180q12 8 18 3 4-3-3-8l-231-210-9-127q13 0 25 13l60 58 125-93q36-20 46 22z m336 229q0-102-40-194t-106-160-160-106-194-40-194 40-160 106-106 160-40 194 40 194 106 160 160 106 194 40 194-40 160-106 106-160 40-194z" horiz-adv-x="1000" />

<glyph glyph-name="codepen" unicode="&#xf32c;" d="M988 506c0 1-1 1-1 2 0 1 0 2 0 4-1 0-1 1-1 2 0 1-1 2-1 3 0 0-1 1-1 2-1 1-1 2-2 3 0 0 0 1-1 2 0 0-1 1-2 2 0 1 0 1-1 2-1 1-1 2-2 2-1 1-1 1-2 2-1 1-1 1-2 2-1 0-1 1-2 1 0 1-1 1-1 1l-451 301c-15 9-33 9-47 0l-452-301c0 0 0 0-1-1 0 0-1-1-2-1 0-1-1-1-2-2-1-1-1-1-2-2 0 0-1-1-2-2 0-1-1-1-1-2-1-1-2-2-2-2-1-1-1-2-1-2-1-1-1-2-2-3 0-1 0-2-1-2 0-1 0-2-1-3 0-1 0-2 0-2-1-2-1-3-1-4 0-1 0-1-1-2 0-2 0-4 0-5l0-301c0-2 0-4 0-6 1-1 1-1 1-2 0-1 0-2 1-3 0-1 0-2 0-2 1-1 1-3 1-4 1 0 1-1 1-2 1-1 1-2 2-2 0-1 0-2 1-2 0-1 1-2 2-3 0-1 1-1 1-2 1-1 2-1 2-2 1-1 1-1 2-2 1 0 2-1 2-2 1 0 2-1 2-1 1 0 1-1 1-1l452-301c7-5 15-7 23-7 8 0 16 2 24 7l451 301c0 0 1 1 1 1 1 0 1 1 2 1 1 1 1 2 2 2 1 1 1 1 2 2 1 1 1 1 2 2 1 1 1 1 1 2 1 1 2 2 2 3 1 0 1 1 1 2 1 0 1 1 2 2 0 1 1 2 1 2 0 1 1 3 1 4 0 0 0 1 1 2 0 1 0 2 0 3 0 1 1 1 1 2 0 2 0 4 0 6l0 301c0 1 0 3 0 5z m-451 216l332-221-148-100-184 123 0 198z m-85 0l0-198-184-123-149 100 333 221z m-367-301l106-71-106-71 0 142z m367-443l-333 222 149 99 184-123 0-198z m42 272l-150 100 150 100 150-100-150-100z m43-272l0 198 184 123 148-99-332-222z m366 301l-106 71 106 71 0-142z" horiz-adv-x="988" />
</font>
</defs>
</svg>
